Loading...
Error

Сверхъестественное / Первый свет / First Light (Джейсон Стоун) [2018,триллер, BDRip 1080p] [DUB] [iTunes]

Reply to topic
DL-List and Torrent activity [Update пиров]
Size:  10.34 GB   |    Registered:  9 months 15 days   |    Completed:  60 times

Seeder not seen: 1 month 19 days

 
 
 
 
Author Message

ZUBDOLGOPA ®

Gender: Male

Longevity: 6 years

Posts: 3929

Location: Моск.обл Долгопрудный город чудный ...



 Top Releaser 2 Постоялец RuTracker.RU
 Mega Releaser 1 Best Releaser 2 Top Owner 1

Post 09-May-2019 18:21

[Quote]

Информация о фильме
Название: Сверхъестественное (Первый свет)
Оригинальное название: First Light
Год выпуска: 2018
Жанр: Триллер
Режиссер: Джейсон Стоун--В ролях: Теодор Пеллерен, Кристин Бут, Кейт Бёртон, Джош Круддас, Шон Дивайн, Ингрид Дион, Хейко Эффенбергер, Дэна Фрадкин, Александр Гомес, Эрик Гидинг--О фильме:
Однажды ночью Алекс сталкивается с таинственными огнями, появившимися над её маленьким городом. Вскоре она узнаёт, что у неё появились опасные сверхспособности. Не зная, куда податься, девушка обращается за помощью к другу детства Шону. А тем временем власти следуют за ними по пятам, желая выяснить, что случилось с Алекс.-- --Страна: Канада
Студия: Oddfellows Entertainment
Продолжительность: 01:30:46
Перевод: Дублированный iTunes--Качество: BDRip 1080p
Видео: MPEG-4 AVC, 1920x808, 15.3 Mbit/s, 23.976 fps
Аудио #01: 48 kHz, AC3, 5.1, 384 Kbps | iTunes | RUS |
Аудио #02: 48 kHz, AC3, 5.1, 640 Kbps | Оригинал | ENG |
Субтитры: Английские
--
General
Unique ID : 194069672876235862326018939126257320210 (0x9200759D23327B164C2C9B5A68048112)
Complete name : D:Video1111080First.Light.2018.BDRip.1080p.seleZen.mkv
Format : Matroska
Format version : Version 4
File size : 10.3 GiB
Duration : 1 h 30 min
Overall bit rate : 16.3 Mb/s
Movie name : First Light 2018 from селезень
Encoded date : UTC 2019-05-02 12:17:32
Writing application : mkvmerge v32.0.0 ('Astral Progressions') 64-bit
Writing library : libebml v1.3.7 + libmatroska v1.5.0
Video
ID : 1
Format : AVC
Format/Info : Advanced Video Codec
Format profile : High@L4.1
Format settings : CABAC / 5 Ref Frames
Format settings, CABAC : Yes
Format settings, Reference : 5 frames
Codec ID : V_MPEG4/ISO/AVC
Duration : 1 h 30 min
Bit rate : 15.3 Mb/s
Width : 1 920 pixels
Height : 808 pixels
Display aspect ratio : 2.40:1
Frame rate mode : Constant
Frame rate : 23.976 (24000/1001) FPS
Color space : YUV
Chroma subsampling : 4:2:0
Bit depth : 8 bits
Scan type : Progressive
Bits/(Pixel*Frame) : 0.411
Stream size : 9.69 GiB (94%)
Title : TDD
Writing library : x264 core 157 r2867+128 3a37e76 t_mod_Custom_2 [8-bit@all X86_64]
Encoding settings : cabac=1 / ref=5 / deblock=1:-3:-3 / analyse=0x3:0x133 / me=umh / subme=11 / psy=1 / fade_compensate=0.00 / psy_rd=1.00:0.00 / mixed_ref=1 / me_range=32 / chroma_me=1 / trellis=2 / 8x8dct=1 / cqm=0 / deadzone=21,11 / fast_pskip=0 / chroma_qp_offset=-2 / threads=12 / lookahead_threads=3 / sliced_threads=0 / nr=0 / decimate=0 / interlaced=0 / bluray_compat=0 / constrained_intra=0 / fgo=0 / bframes=16 / b_pyramid=2 / b_adapt=2 / b_bias=0 / direct=3 / weightb=1 / open_gop=0 / weightp=2 / keyint=250 / keyint_min=23 / scenecut=40 / intra_refresh=0 / rc_lookahead=250 / rc=crf / mbtree=0 / crf=16.8000 / qcomp=0.65 / qpmin=0:0:0 / qpmax=69:69:69 / qpstep=4 / vbv_maxrate=62500 / vbv_bufsize=78125 / crf_max=0.0 / nal_hrd=none / filler=0 / ip_ratio=1.30 / pb_ratio=1.20 / aq=2:0.80 / aq-sensitivity=10.00 / aq-factor=1.00:1.00:1.00 / aq2=0 / aq3=0 / zones=292,1060,crf=12.5/21487,21574,crf=12/21953,22186,crf=12/23498,23773,crf=12/23950,24037,crf=12/25929,26229,crf=12/26332,26510,crf=12/26690,26775,crf=12/60316,60423,crf=11.7/101677,101792,crf=12
Language : English
Default : Yes
Forced : No
Audio #1
ID : 2
Format : AC-3
Format/Info : Audio Coding 3
Commercial name : Dolby Digital
Codec ID : A_AC3
Duration : 1 h 30 min
Bit rate mode : Constant
Bit rate : 384 kb/s
Channel(s) : 6 channels
Channel layout : L R C LFE Ls Rs
Sampling rate : 48.0 kHz
Frame rate : 31.250 FPS (1536 SPF)
Bit depth : 16 bits
Compression mode : Lossy
Stream size : 249 MiB (2%)
Title : iTunes
Language : Russian
Service kind : Complete Main
Default : Yes
Forced : Yes
Audio #2
ID : 3
Format : AC-3
Format/Info : Audio Coding 3
Commercial name : Dolby Digital
Codec ID : A_AC3
Duration : 1 h 30 min
Bit rate mode : Constant
Bit rate : 640 kb/s
Channel(s) : 6 channels
Channel layout : L R C LFE Ls Rs
Sampling rate : 48.0 kHz
Frame rate : 31.250 FPS (1536 SPF)
Bit depth : 16 bits
Compression mode : Lossy
Stream size : 416 MiB (4%)
Title : Original
Language : English
Service kind : Complete Main
Default : No
Forced : No
Text #1
ID : 4
Format : UTF-8
Codec ID : S_TEXT/UTF8
Codec ID/Info : UTF-8 Plain Text
Duration : 1 h 24 min
Bit rate : 31 b/s
Count of elements : 699
Stream size : 19.4 KiB (0%)
Title : Full
Language : English
Default : No
Forced : No
Text #2
ID : 5
Format : UTF-8
Codec ID : S_TEXT/UTF8
Codec ID/Info : UTF-8 Plain Text
Duration : 1 h 26 min
Bit rate : 32 b/s
Count of elements : 731
Stream size : 20.4 KiB (0%)
Title : SDH
Language : English
Default : No
Forced : No
Menu
00: 00:00.000 : en:Chapter 1
00: 10:12.278 : en:Chapter 2
00: 19:51.524 : en:Chapter 3
00: 29:01.698 : en:Chapter 4
00: 40:09.157 : en:Chapter 5
00: 50:31.278 : en:Chapter 6
00: 59:09.296 : en:Chapter 7
01: 10:19.465 : en:Chapter 8
01:20:08.512 : en:Chapter 9
[185.81.128.108].t123813.torrent 
Torrent: Registered [ 2019-05-09 18:21 ]

Download .torrent

Download

14 KB

Status: checked
Completed: 60 times
Size: 10.34 GB  ·  Тип торрента
Evaluation:  - (vote: 0)
Thanked: 1  Thank you   (list)
terms.php
Похожие темы
[Profile] [PM]
Display posts:    
Reply to topic

Current time is: 25-Feb 02:01

All times are UTC + 3



You cannot post new topics in this forum
You cannot reply to topics in this forum
You cannot edit your posts in this forum
You cannot delete your posts in this forum
You cannot vote in polls in this forum
You cannot attach files in this forum
You can download files in this forum