Loading...
Error

Падение Луны / Moonfall (Роланд Эммерих) [2022, Боевик, Фантастика, HDRip-AVC] DUB, MVO [ iTunes, Jaskier] от ExKinoRay

Reply to topic
 
Author Message

WOLF1245 ®

Gender: Male

Longevity: 11 years

Posts: 25831

Location: Вильнюс, Lithuania



 Best Releaser 3 Постоялец RuTracker.RU
 Top Releaser 3 Mega Releaser 3 Top Owner 3 Top Seeder 3 Top Keeper 3

Post 23-Apr-2022 16:30

[Quote]

- Падение Луны / Moonfall - Информация о фильме:
Название: Падение Луны
Оригинальное название: Moonfall
Год выхода: 2022
Жанр: Боевик, Фантастика
Режиссер: Роланд Эммерих
В ролях: Холли Берри, Патрик Уилсон, Джош Гад, Джон Брэдли, Майкл Пенья, Чарли Пламмер, Юй Вэньвэнь, Дональд Сазерленд, Эме Иквуакор, Каролина Бартчак, Максим Рой, Фрэнк Скорпион, Стивен Богерт, Андреас Апергис, Кэтлин Фи
Описание: В 2011 году во время рядового ремонта спутника на находившихся в открытом космосе астронавтов напал странный рой, вылетевший из лунного кратера. Один космонавт погиб, а второй — Брайан Харпер — несколько лет после происшествия пытался убедить НАСА, что в случившемся виноват необъяснимый феномен.
12 лет спустя Луна внезапно сходит с орбиты и идёт на столкновение с Землёй, что провоцирует множественные катаклизмы и грозит гибелью человечества. Астроном-самородок, первым заметивший данную аномалию и считающий, что Луна является мегаструктурой, безуспешно пытается достучаться до правительства, поэтому просит помощи у вышедшего в отставку Харпера

Страна: США, Китай, Канада
Студия: AGC Studios, Centropolis Entertainment, H Brothers, Huayi Brothers Media, Lionsgate, Street Entertainment, UK Moonfall
Продолжительность: 02:10:16
Перевод: Дублированный - iTunes, Профессиональный (многоголосый, закадровый) - Jaskier

Информация о файле:
Кодек: AVC
Формат: MKV
Качество: HDRip-AVC
Видео: MPEG-4 AVC, 1024x428, 23.976 fps, 2080 kb/s
Аудио RU: AC3, 6 ch, 48 kHz, 384 kbps | iTunes
Аудио RU: AC3, 6 ch, 48 kHz, 448 kbps | Jaskier
Аудио EN: AC3, 6 ch, 48 kHz, 448 kbps
Субтитры: Русские (форсированные), английские

x264 info: frame I:2090 Avg QP:12.16 size: 58037
x264 info: frame P:40354 Avg QP:15.64 size: 22366
x264 info: frame B:144996 Avg QP:16.40 size: 6938
General
Unique ID : 66222400830831852596603868675433447777 (0x31D1F8710B8B9EE34CEBBFCCD2824161)
Complete name : D:uTorrentРипы wolf1245Moonfall.2022.DUB.iTunes.MVO.Jaskier.x264.HDRip-AVC.[wolf1245.ExKinoRay].mkv
Format : Matroska
Format version : Version 4
File size : 3.06 GiB
Duration : 2 h 10 min
Overall bit rate : 3 358 kb/s
Movie name : Moonfall.2022.DUB.iTunes.MVO.Jaskier.x264.HDRip-AVC.[wolf1245.ExKinoRay]
Encoded date : UTC 2022-04-23 13:12:46
Writing application : mkvmerge v67.0.0 ('Under Stars') 64-bit
Writing library : libebml v1.4.2 + libmatroska v1.6.4
Video
ID : 1
Format : AVC
Format/Info : Advanced Video Codec
Format profile : High@L4.1
Format settings : CABAC / 12 Ref Frames
Format settings, CABAC : Yes
Format settings, Reference frames : 12 frames
Codec ID : V_MPEG4/ISO/AVC
Duration : 2 h 10 min
Bit rate : 2 080 kb/s
Width : 1 024 pixels
Height : 428 pixels
Display aspect ratio : 2.40:1
Frame rate mode : Constant
Frame rate : 23.976 (24000/1001) FPS
Color space : YUV
Chroma subsampling : 4:2:0
Bit depth : 8 bits
Scan type : Progressive
Bits/(Pixel*Frame) : 0.198
Stream size : 1.89 GiB (62%)
Title : -=[wolf1245.ExKinoRay]=-
Writing library : x264 core 163 r3060 5db6aa6
Encoding settings : cabac=1 / ref=12 / deblock=1:-3:-3 / analyse=0x3:0x133 / me=umh / subme=11 / psy=1 / psy_rd=1.10:0.20 / mixed_ref=1 / me_range=32 / chroma_me=1 / trellis=2 / 8x8dct=1 / cqm=0 / deadzone=22,11 / fast_pskip=1 / chroma_qp_offset=-3 / threads=10 / lookahead_threads=2 / sliced_threads=0 / nr=0 / decimate=0 / interlaced=0 / bluray_compat=0 / constrained_intra=0 / bframes=10 / b_pyramid=2 / b_adapt=2 / b_bias=0 / direct=3 / weightb=1 / open_gop=0 / weightp=2 / keyint=240 / keyint_min=24 / scenecut=40 / intra_refresh=0 / rc_lookahead=60 / rc=2pass / mbtree=0 / bitrate=2080 / ratetol=1.0 / qcomp=0.60 / qpmin=0 / qpmax=69 / qpstep=4 / cplxblur=20.0 / qblur=0.5 / vbv_maxrate=50000 / vbv_bufsize=62500 / nal_hrd=none / filler=0 / ip_ratio=1.40 / pb_ratio=1.30 / aq=1:1.10
Language : English
Default : Yes
Forced : No
Color range : Limited
Color primaries : BT.709
Matrix coefficients : BT.709
Audio #1
ID : 2
Format : AC-3
Format/Info : Audio Coding 3
Commercial name : Dolby Digital
Codec ID : A_AC3
Duration : 2 h 10 min
Bit rate mode : Constant
Bit rate : 384 kb/s
Channel(s) : 6 channels
Channel layout : L R C LFE Ls Rs
Sampling rate : 48.0 kHz
Frame rate : 31.250 FPS (1536 SPF)
Compression mode : Lossy
Stream size : 358 MiB (11%)
Title : DUB | iTunes | RUS
Language : Russian
Service kind : Complete Main
Default : Yes
Forced : Yes
Audio #2
ID : 3
Format : AC-3
Format/Info : Audio Coding 3
Commercial name : Dolby Digital
Codec ID : A_AC3
Duration : 2 h 10 min
Bit rate mode : Constant
Bit rate : 448 kb/s
Channel(s) : 6 channels
Channel layout : L R C LFE Ls Rs
Sampling rate : 48.0 kHz
Frame rate : 31.250 FPS (1536 SPF)
Compression mode : Lossy
Stream size : 417 MiB (13%)
Title : MVO | Jaskier | RUS
Language : Russian
Service kind : Complete Main
Default : No
Forced : No
Audio #3
ID : 4
Format : AC-3
Format/Info : Audio Coding 3
Commercial name : Dolby Digital
Codec ID : A_AC3
Duration : 2 h 10 min
Bit rate mode : Constant
Bit rate : 448 kb/s
Channel(s) : 6 channels
Channel layout : L R C LFE Ls Rs
Sampling rate : 48.0 kHz
Frame rate : 31.250 FPS (1536 SPF)
Compression mode : Lossy
Stream size : 418 MiB (13%)
Title : Original | ENG
Language : English
Service kind : Complete Main
Default : Yes
Forced : No
Text #1
ID : 5
Format : UTF-8
Codec ID : S_TEXT/UTF8
Codec ID/Info : UTF-8 Plain Text
Duration : 46 min 54 s
Bit rate : 1 b/s
Count of elements : 9
Stream size : 380 Bytes (0%)
Title : Forced
Language : Russian
Default : Yes
Forced : Yes
Text #2
ID : 6
Format : UTF-8
Codec ID : S_TEXT/UTF8
Codec ID/Info : UTF-8 Plain Text
Duration : 2 h 0 min
Bit rate : 69 b/s
Count of elements : 2261
Stream size : 61.8 KiB (0%)
Title : Full
Language : English
Default : No
Forced : No
Text #3
ID : 7
Format : UTF-8
Codec ID : S_TEXT/UTF8
Codec ID/Info : UTF-8 Plain Text
Duration : 2 h 0 min
Bit rate : 72 b/s
Count of elements : 2266
Stream size : 64.1 KiB (0%)
Title : SDH
Language : English
Default : No
Forced : No
Menu
00:00:00.000 : :Chapter 01
00:05:58.275 : :Chapter 02
00:13:28.057 : :Chapter 03
00:21:14.565 : :Chapter 04
00:30:58.940 : :Chapter 05
00:38:36.856 : :Chapter 06
00:47:33.726 : :Chapter 07
00:55:51.848 : :Chapter 08
01:03:39.816 : :Chapter 09
01:10:14.710 : :Chapter 10
01:15:38.534 : :Chapter 11
01:22:37.369 : :Chapter 12
01:30:10.780 : :Chapter 13
01:35:47.784 : :Chapter 14
01:45:09.178 : :Chapter 15
01:56:22.976 : :Chapter 16
Релиз от:
Автор релиза:
[Profile] [PM]
Display posts:    
Reply to topic

Current time is: 03-Mar 18:16

All times are UTC + 3



You cannot post new topics in this forum
You cannot reply to topics in this forum
You cannot edit your posts in this forum
You cannot delete your posts in this forum
You cannot vote in polls in this forum
You cannot attach files in this forum
You cannot download files in this forum